#TITLE:Pure Ruby;
#SUBTITLE:;
#ARTIST:Shiki;
#TITLETRANSLIT:;
#SUBTITLETRANSLIT:;
#ARTISTTRANSLIT:;
#CREDIT:;
#BANNER:banner.jpg;
#BACKGROUND:background.jpg;
#LYRICSPATH:;
#CDTITLE:cd.jpg;
#MUSIC:Pure Ruby.mp3;
#OFFSET:0.638;
#SAMPLESTART:51.840;
#SAMPLELENGTH:12.000;
#SELECTABLE:YES;
#BPMS:0.000=178.000;
#STOPS:;
#BGCHANGES:;
// cache tags:
#FIRSTBEAT:4.000;
#LASTBEAT:392.000;
#SONGFILENAME:Songs/Super Dancer Online/Pure Ruby/Pure Ruby.sm;
#HASMUSIC:1;
#HASBANNER:1;
#MUSICLENGTH:133.674;
// end cache tags

//---------------dance-single - Blank----------------
#NOTES:
     dance-single:
     Blank:
     Challenge:
     11:
     1.000,1.000,1.000,0.875,1.000,1075.000,582.000,117.000,0.000,238.000:
0000
0000
0000
0000
,
1101
0000
1100
0000
0110
0001
1100
0010
0101
0010
1100
0001
0110
0000
0101
0000
,
1011
0000
0110
0000
1100
0000
0011
0100
1010
0100
0011
0100
1010
0000
0110
0000
,
0111
0000
1001
0000
0101
0000
0011
0100
1010
0100
0011
0000
1010
0000
0110
0000
,
1001
0000
0000
0000
1010
0000
0000
0000
1100
0000
0000
0000
0101
1010
0101
1010
,
1102
0000
1000
0000
0113
0000
0100
0000
1010
0001
0100
0010
1001
0100
0010
0001
,
1120
0031
1100
1002
1013
0110
1100
0011
,
2110
0000
0001
0000
0110
0000
3001
0000
0101
0010
0001
1000
0110
0001
0100
0010
,
1102
0010
0113
2100
3011
1100
2020
3130
,
1102
0000
0010
0000
1103
0000
0010
0000
1001
0010
0100
1000
0011
0100
1000
0010
,
1201
0010
1301
2010
0101
3010
0102
1003
,
1011
0100
0011
1000
0101
0010
0101
0010
1100
0010
1001
0100
1010
0001
1010
0100
,
0011
0100
1001
0100
0011
0100
1001
0010
1100
0001
1100
0010
1001
0100
0011
0100
,
2002
0000
0000
0000
,
0000
0000
0000
3003
,
1012
0100
1010
0010
0100
1000
1010
0100
,
2103
0000
0000
0010
0000
0000
0101
0000
0000
0010
0000
0000
3001
0000
0010
0000
1000
0000
0010
0000
1000
0000
0100
0000
,
2001
0010
0101
0010
0100
0010
3120
1000
,
1230
0001
1010
0001
1302
0000
2013
0010
,
3201
1000
1001
0312
0100
1000
0213
0001
,
0312
1000
0110
0123
0001
1000
2130
0001
,
3201
0010
1001
0010
0001
1000
0312
2103
,
3012
0100
1010
0100
1023
0001
1001
0001
,
2031
0100
0101
0100
0010
0100
0101
0100
,
3210
0000
0000
0000
0000
0000
1001
0000
0000
1000
0000
0000
0301
0000
1000
0000
0100
0000
1000
0000
0100
0000
0010
0000
,
0201
1000
1001
1000
0010
1000
2310
0100
,
3021
1000
0101
1000
0231
1000
0312
0100
,
0213
0001
1010
0321
1000
0100
1032
0010
,
1023
0001
0101
1230
0010
0001
2310
0001
,
3012
0100
1010
0100
0010
1000
0213
2301
,
3210
0001
1000
0001
1320
0100
1001
0100
,
1132
0010
0123
1032
0010
1203
0312
0123
,
2031
0010
3102
2013
0001
3012
2103
3021
,
1032
0100
1023
0100
0231
2301
0110
3102
,
1000
0000
0123
0000
1001
0000
1230
0000
0010
0000
2301
0000
3010
1000
0100
0010
,
1002
1000
1010
1003
0100
2010
0101
3012
,
1000
0213
1001
0312
0100
1023
0231
2310
,
0012
3000
0000
0000
0000
0000
0000
0000
0000
0000
0000
0000
0000
0000
0000
0000
0000
0000
0000
0000
0000
0000
0000
0000
0100
0000
0000
0000
0000
0000
0000
0000
0000
0000
0000
0000
0000
0000
0000
0000
0000
0000
0000
0000
0000
0000
0000
0000
1010
0000
0000
0000
0000
0000
0000
0000
0000
0000
0000
0000
0000
0000
0000
0000
0000
0000
0000
0000
0000
0000
0000
0000
0100
0000
0000
0000
0000
0000
0000
0000
0000
0000
0000
0000
0000
0000
0000
0000
0000
0000
0000
0000
0000
0000
0000
0000
1000
0000
0000
0000
0000
0000
0000
0000
0000
0000
0000
0000
0000
0000
0000
0000
0000
0000
0000
0000
0000
0000
0000
0000
0100
0000
0000
0000
0000
0000
0000
0000
0000
0000
0000
0000
0000
0000
0000
0000
0000
0000
0000
0000
0000
0000
0000
0000
1010
0000
0000
0000
0000
0000
0000
0000
0000
0000
0000
0000
0000
0000
0000
0000
0000
0000
0000
0000
0000
0000
0000
0000
0100
0000
0000
0000
0000
0000
0000
0000
0000
0000
0000
0000
0000
0000
0000
0000
0000
0000
0000
0000
0000
0000
0000
0000
,
1000
0000
0100
0000
1000
0100
0010
0000
1003
0000
0010
0000
0101
1010
0101
1010
,
0101
0010
0100
1000
0111
1000
0100
0010
1100
0001
1010
0100
1011
0100
0011
0100
,
0011
1000
0100
0010
1101
0100
0010
1000
0101
1000
0011
0100
1011
0100
1001
0100
,
1010
0100
1001
0010
1101
0010
0101
1000
0101
0010
0100
1000
0011
0100
1010
0001
,
1010
0100
0010
1000
0101
0010
1000
0100
0011
0100
0010
0100
1011
0100
1001
0010
,
1101
0100
1010
0010
1101
0010
0100
1000
0111
0001
1010
0100
1111
0100
1100
0010
,
0101
0010
1001
0010
1101
0010
1100
0010
1011
0100
0010
1000
0111
1000
0101
0010
,
1001
0100
1010
0001
1110
0001
1010
0100
1011
0100
1001
0100
0011
0100
1001
0010
,
1100
0001
1010
0001
0110
0001
1100
0010
0101
1000
0100
0010
1101
0010
0101
0010
,
1001
0100
0010
1000
0111
1000
0100
0010
0101
1000
0100
0010
1001
0100
0011
0100
,
0011
1000
0100
0010
1001
0100
0010
1000
0101
1000
0010
1000
0011
1000
0101
0010
,
1100
0010
0001
0010
1100
0001
1010
0001
1100
0010
0101
1000
0110
1000
0101
1000
,
0101
0010
1001
0100
1010
0100
1001
0010
1100
0010
0101
1000
0101
1000
0101
0010
,
1001
0100
0010
0100
1011
0100
1000
0100
0111
1000
0101
0010
1111
0010
1001
0100
,
1010
0100
1010
0001
1110
0001
1100
0010
1101
0010
1100
0001
1110
0001
1100
0010
,
1001
0100
1010
0001
1110
0001
1010
0100
1011
0100
0011
1000
0101
1000
0101
0010
,
1100
0010
1001
0100
1010
0100
1010
0100
1001
0100
1011
0010
0100
1011
0100
1011
,
1200
0000
0011
1000
0000
0000
0011
0000
,
0300
0000
0000
2011
0000
0000
3112
0000
1123
0000
0032
0000
,
2113
0101
0000
0101
,
3121
0000
0001
2131
0000
0000
3121
0000
,
1232
1010
0000
1010
,
1323
0000
1000
1231
0000
0000
1312
0000
,
1213
0000
0001
2311
0000
0000
0110
0000
,
3101
0000
1001
0000
0110
0000
1001
0000
0011
0000
1001
0000
1001
0110
1000
0110
,
1012
0100
1100
1010
1100
0010
1100
0100
,
1100
0000
0000
0000
0000
0000
0100
0000
0000
0000
0000
0000
2113
0000
0000
0000
0000
0000
0100
0000
0000
3000
0000
0000
2111
0000
0000
0000
0000
0000
0010
0000
0111
3000
0000
0000
1000
0000
0000
0000
0111
0000
1000
0000
0000
0000
0000
0000
,
1112
0010
1010
0100
1010
0100
1010
0100
,
1123
0001
1000
1132
1000
0010
2113
0100
,
3212
0010
1010
0010
1000
0010
1000
0010
,
1323
0000
1000
0000
0001
0000
2132
0000
0010
0000
0100
3000
2213
0000
0010
0000
,
3322
0000
0100
0000
1000
0003
1231
0000
1000
0000
0001
0000
1321
0000
0100
0030
,
1102
0000
0000
0000
0110
0000
0000
0000
1100
0000
1010
0000
1110
0100
1010
1100
,
1113
0010
1010
0010
1110
0000
0101
0010
1100
0010
0101
0000
1101
0010
1100
0010
,
1100
0010
0101
0010
1101
0000
0101
0010
1100
0001
1010
0000
1011
0100
1010
0100
,
1010
0001
1100
0001
1110
0000
1100
0010
1001
0010
1100
0000
1110
0001
1100
0001
,
0110
0001
1010
0001
1110
0000
1010
0001
0110
0001
1010
0000
1110
0001
1010
0001
,
0110
0001
1100
0001
1110
0000
0110
0001
0110
0001
1100
0000
1101
0010
1001
0010
,
1100
0010
0101
0010
1101
0000
1100
0010
1100
0001
0110
0000
1101
0010
1100
0001
,
0110
0001
1010
0001
1110
0000
1010
0001
1100
0001
1010
0000
1110
0001
1010
0001
,
1010
0001
1000
0110
1011
0000
1000
0110
1011
0000
1000
0110
1011
0100
1000
0110
,
1011
0100
0011
1100
0011
1000
0100
1010
0101
1010
0101
1000
0110
1001
0110
1001
,
0110
1001
0110
1001
0110
1000
0011
0100
1010
0100
0011
1000
0101
1010
0100
1010
,
0101
0010
0100
1010
0101
1000
0011
0100
1001
0010
0100
1000
0101
1010
0101
1010
,
0101
1010
0101
0010
0101
0010
1001
0110
1011
1100
0011
1000
0110
0001
1100
0011
,
1101
1001
0110
1000
0111
0010
1100
0011
1101
0110
1100
0011
1110
0101
1010
0101
,
1010
0101
1010
0101
1010
0001
1100
0011
1110
1100
0011
1000
0110
1001
0100
0010
,
1001
0100
0010
0001
1110
0001
1010
0100
1011
0100
0011
1000
0101
1010
0101
1010
,
0101
1010
0101
1010
0101
0010
1100
0001
1010
0101
1010
0100
0011
1100
0011
0100
,
1001
0010
0100
0010
1100
0010
0101
1010
0101
1010
0101
0010
1100
0010
0101
0010
,
1100
0010
0001
1000
0110
0001
1000
0010
0101
0010
1000
0001
1010
0101
1010
0101
,
1010
0101
1010
0101
1010
0100
0011
1100
0011
1100
0011
1000
0101
1010
0101
1010
,
0101
1010
0101
1010
0101
0010
1001
0110
1011
1100
0011
0100
1010
0101
1100
0110
,
1101
0010
0100
1001
0111
0010
0101
1100
1011
0110
0011
1100
0111
1010
0101
1010
,
0101
1010
0101
1010
1110
0100
0001
0010
1110
0100
0010
1000
0110
0001
0010
0100
,
1001
0010
0100
1000
0111
1000
0001
0010
1101
0010
1100
0001
1010
0101
1010
0101
,
1010
0100
0001
0110
1011
0100
0001
0110
1001
0010
1000
0110
1101
0010
0001
0110
,
2100
0010
0101
0001
0100
0010
0101
0010
,
3001
0100
0001
0010
0100
1000
0100
0001
,
2020
0000
0000
0000
,
3030
0000
0000
0000
;
